威酷高清论坛

 找回密码
 立即注册
查看: 35|回复: 0
收起左侧

[4K超清电影威酷转帖] 天堂的张望.I.Hope.You.Are.Well.2020.WEB-DL.4K.HEVC.DDP5.1-10003@BBQDDQ.COM 13.86GB

[复制链接]
  • TA的每日心情

    2023-1-2 22:08
  • 签到天数: 20 天

    [LV.4]偶尔看看III

     楼主| 卡西迪奥 发表于 2023-1-17 20:38:59 | 显示全部楼层 |阅读模式


    ◎译  名 天堂的张望
    ◎年  代 2020
    ◎产  地 中国大陆
    ◎类  别 剧情 / 家庭 / 儿童
    ◎语  言 汉语普通话
    ◎上映日期 2020-11-20(中国大陆)
    ◎IMDb链接 https://www.imdb.com/title//
    ◎豆瓣评分 6.9/10 (8065人评价)
    ◎豆瓣链接 https://movie.douban.com/subject/33427574/
    ◎片  长 116分钟
    ◎导  演 杜斌 Bin Du (id:1417466)
    ◎编  剧 杜斌 Bin Du (id:1417466)
    ◎演  员 杜奕衡 John Do (id:1275965)
          朱梓玥 Ziyue Zhu (id:1445099)
          王力可 Like Wang (id:1314078)
          马瑜遥 Yuyao Ma (id:1367189)
          吴志雄 Chi Hung Ng (id:1316796)
          刘流 Liu Liu (id:1315175)
          卢秋宏 Qiuhong Lu (id:1384169)
          宫晓瑄 Xiaoxuan Gong (id:1275543)
          张永达 Yongda Zhang (id:1350186)
          杜芷萱 Zhixuan Du (id:1449978)
          杜雨宸 Yuchen Du (id:1450842)
          杜丰宇 Fengyu Du (id:1450843)
          杜斌 Bin Du (id:1417466)

    ◎标  签 感人 / 白血病 / 中国 / 电影 / 文艺片 / 2020观影 / 2020 / A华语

    ◎简  介
      7岁女孩张望和父亲张国华相依为命,生活虽是清贫,但还是生活的很幸福。一天张望突然流鼻血不止,去医院检查,才知得了急性白血病,治疗需要30多万的费用,筹钱无果的张国华整日以泪洗面;而张望,清楚自己的家庭情况,毅然决定放弃治疗。记者王小月得知此事,赶往张国华家中,才得知了张望的真实身世.....事件经媒体曝光后,张望引起社会各界关注,全国各地纷纷捐款资助,很快,张望的医疗费就凑够了。感受到社会爱的力量和无数陌生人的关心,也使张望变得无比坚强,她用常人难以想象的痛苦接受着治疗,并一次一次经历着鬼门关,然而就在大家都认为张望的病快要好起来的时候,张望却做了一个出乎所有人意料的决定..........
    General
    Unique ID : 218688245834208199332685708394756635626 (0xA485D2F91E9770E3B9F13D21ED08FBEA)
    Complete name : 天堂的张望.I.Hope.You.Are.Well.2020.WEB-DL.4K.HEVC.DDP5.1-10003@BBQDDQ.COM.mkv
    Format : Matroska
    Format version : Version 4
    File size : 13.9 GiB
    Duration : 1 h 56 min
    Overall bit rate : 17.0 Mb/s
    Encoded date : UTC 2021-07-18 07:30:32
    Writing application : mkvmerge v51.0.0 ('I Wish') 64-bit
    Writing library : libebml v1.4.0 + libmatroska v1.6.2

    Video
    ID : 1
    Format : HEVC
    Format/Info : High Efficiency Video Coding
    Format profile : Main@L5@High
    Codec ID : V_MPEGH/ISO/HEVC
    Duration : 1 h 56 min
    Bit rate : 16.7 Mb/s
    Width : 3 840 pixels
    Height : 1 632 pixels
    Display aspect ratio : 2.35:1
    Frame rate mode : Constant
    Frame rate : 24.000 FPS
    Color space : YUV
    Chroma subsampling : 4:2:0
    Bit depth : 8 bits
    Bits/(Pixel*Frame) : 0.111
    Stream size : 13.6 GiB (98%)
    Default : Yes
    Forced : No

    Audio
    ID : 2
    Format : E-AC-3
    Format/Info : Enhanced AC-3
    Commercial name : Dolby Digital Plus
    Codec ID : A_EAC3
    Duration : 1 h 56 min
    Bit rate mode : Constant
    Bit rate : 256 kb/s
    Channel(s) : 6 channels
    Channel layout : L R C LFE Ls Rs
    Sampling rate : 48.0 kHz
    Frame rate : 31.250 FPS (1536 SPF)
    Compression mode : Lossy
    Stream size : 214 MiB (2%)
    Service kind : Complete Main
    Default : Yes
    Forced : No



    本帖子中包含更多资源

    您需要 登录 才可以下载或查看,没有账号?立即注册

    x
    回复

    使用道具 举报

    您需要登录后才可以回帖 登录 | 立即注册

    本版积分规则

    QQ|广告友链合作联系QQ:2510481767|小黑屋|威酷高清影视论坛

    GMT+8, 2023-2-9 02:03 , Processed in 0.029022 second(s), 30 queries , Gzip On.

    Powered by Discuz! X3.4

    Copyright © 2001-2021, Tencent Cloud.

    快速回复 返回顶部 返回列表